Jump to content

All Activity

This stream auto-updates     

  1. Today
  2. NGK (Original Motion Picture Soundtrack) - 2019 - [Tamil Original UNTOUCHED FLAC (24bit-48.0kHz) - 188MB] WE ARE NOW AVAILABLE ON TELEGRAM CHANNEL JOIN FOR LATEST UPDATES No WM's | No URL Tag's Untouched Crystal Clear Audio's General Complete name : 03 - Anbae Peranbae.flac Format : FLAC Format/Info : Free Lossless Audio Codec File size : 57.6 MiB Duration : 4 min 29 s Overall bit rate mode : Variable Overall bit rate : 1 795 kb/s Album : NGK Album/Performer : Yuvanshankar Raja Part : 1 Part/Total : 1 Track name : Anbae Peranbae Track name/Position : 3 Track name/Total : 4 Performer : Sid Sriram Composer : Yuvanshankar Raja Genre : Bandes originales de films Recorded date : 2019-04-30 ISRC : INS171901724 Copyright : (P) 2019 Sony Music Entertainment India Pvt. Ltd. Cover : Yes Cover type : Cover (front) Cover MIME : image/jpeg UPC : 0886447708507 MEDIATYPE : album ITUNESADVISORY : 1 Audio Format : FLAC Format/Info : Free Lossless Audio Codec Duration : 4 min 29 s Bit rate mode : Variable Bit rate : 1 778 kb/s Channel(s) : 2 channels Channel layout : L R Sampling rate : 48.0 kHz Bit depth : 24 bits Compression mode : Lossless Stream size : 57.1 MiB (99%) SPEK WE ALSO AVAILABLE IN ANDROID APP! INSTALL NOW TO GET INSTANT UPDATES & BYPASS RESTRICTIONS FLAC 24bit-48.0kHz www.TamilBlasters.link - NGK (Original Motion Picture Soundtrack) - 2019 - [Tamil Original UNTOUCHED FLAC (24bit-48.0kHz) - 188MB] Note : Digital DL Original FLAC Source : QOBUZ Share with proper credit's Quality Speaks
  3. WE ARE NOW AVAILABLE ON TELEGRAM CHANNEL JOIN FOR LATEST UPDATES click in the image to view full size SCREENSHOTS WE ALSO AVAILABLE IN ANDROID APP! INSTALL NOW TO GET INSTANT UPDATES & BYPASS RESTRICTIONS www.Tamilblasters.link - Appathava Aattaya Pottutanga (2021) [1080p HD AVC - x264 - UNTOUCHED - [Tam + Tel + Mal + Kan] - AAC 2.0 - 2.6GB].torrent Magnet Link Please Seed Back After Download
  4. WE ARE NOW AVAILABLE ON TELEGRAM CHANNEL JOIN FOR LATEST UPDATES click in the image to view full size SCREENSHOTS WE ALSO AVAILABLE IN ANDROID APP! INSTALL NOW TO GET INSTANT UPDATES & BYPASS RESTRICTIONS www.Tamilblasters.link - Appathava Aattaya Pottutanga (2021) [1080p HEVC - x265 - [Tam + Tel + Mal + Kan] - AAC 2.0 - 1.6GB].torrent Magnet Link Please Seed Back After Download
  5. WE ARE NOW AVAILABLE ON TELEGRAM CHANNEL JOIN FOR LATEST UPDATES click in the image to view full size SCREENSHOTS WE ALSO AVAILABLE IN ANDROID APP! INSTALL NOW TO GET INSTANT UPDATES & BYPASS RESTRICTIONS www.Tamilblasters.link - Appathava Aattaya Pottutanga (2021) [720p HD AVC - x264 - UNTOUCHED - [Tam + Tel + Mal + Kan] - AAC 2.0 - 1.2GB].torrent Magnet Link Please Seed Back After Download
  6. WE ARE NOW AVAILABLE ON TELEGRAM CHANNEL JOIN FOR LATEST UPDATES click in the image to view full size SCREENSHOTS WE ALSO AVAILABLE IN ANDROID APP! INSTALL NOW TO GET INSTANT UPDATES & BYPASS RESTRICTIONS www.Tamilblasters.link - Appathava Aattaya Pottutanga (2021) [Proper HQ HDRip - x264 - [Tam + Tel + Mal + Kan] - AAC 2.0 - 750MB].torrent Magnet Link Please Seed Back After Download
  7. Sanga Thamizhan (Original Motion Picture Soundtrack) - 2019 - [Tamil Original UNTOUCHED FLAC (24bit-48.0kHz) - 324MB] WE ARE NOW AVAILABLE ON TELEGRAM CHANNEL JOIN FOR LATEST UPDATES No WM's | No URL Tag's Untouched Crystal Clear Audio's General Complete name : 05 - Sandakari Neethan.flac Format : FLAC Format/Info : Free Lossless Audio Codec File size : 54.4 MiB Duration : 4 min 10 s Overall bit rate mode : Variable Overall bit rate : 1 826 kb/s Album : Sanga Thamizhan Album/Performer : Vivek - Mervin Part : 1 Part/Total : 1 Track name : Sandakari Neethan Track name/Position : 5 Track name/Total : 6 Performer : Vivek - Mervin Composer : Mervin Solomon Genre : Bandes originales de films Recorded date : 2019-09-17 ISRC : INS171903080 Copyright : (P) 2019 Sony Music Entertainment India Pvt. Ltd. Cover : Yes Cover type : Cover (front) Cover MIME : image/jpeg UPC : 0886447967836 MEDIATYPE : album ITUNESADVISORY : 1 Audio Format : FLAC Format/Info : Free Lossless Audio Codec Duration : 4 min 10 s Bit rate mode : Variable Bit rate : 1 807 kb/s Channel(s) : 2 channels Channel layout : L R Sampling rate : 48.0 kHz Bit depth : 24 bits Compression mode : Lossless Stream size : 53.9 MiB (99% SPEK WE ALSO AVAILABLE IN ANDROID APP! INSTALL NOW TO GET INSTANT UPDATES & BYPASS RESTRICTIONS FLAC 24bit-48.0kHz www.TamilBlasters.link - Sanga Thamizhan (Original Motion Picture Soundtrack) - 2019 - [Tamil Original UNTOUCHED FLAC (24bit-48.0kHz) - 324MB] Note : Digital DL Original FLAC Source : QOBUZ Share with proper credit's Quality Speaks
  8. WE ARE NOW AVAILABLE ON TELEGRAM CHANNEL JOIN FOR LATEST UPDATES click in the image to view full size SCREENSHOTS WE ALSO AVAILABLE IN ANDROID APP! INSTALL NOW TO GET INSTANT UPDATES & BYPASS RESTRICTIONS www.Tamilblasters.link - Appathava Aattaya Pottutanga (2021) [Proper HQ HDRip - x264 - [Tam + Tel + Mal + Kan] - AAC 2.0 - 450MB].torrent Magnet Link Please Seed Back After Download
  9. Please full fastest seeding request all torrent file... very slowly download... Multiple sizes direct link added...
  10. Lost in Space (Season 3) iMDb Rating: 7.3/10 Genre: Adventure | Drama | Sci-Fi Cast: Molly Parker, Toby Stephens, Maxwell Jenkins No. of Episodes: 8 Language: Hindi DD5.1 + English / ESubs Quality: 720p (WEB-DL) : ScreenShots : Lost.in.Space.S03.E01.720p.WEB-DL.Hindi.5.1-English.ESub.x264 Lost.in.Space.S03.E02.720p.WEB-DL.Hindi.5.1-English.ESub.x264 Lost.in.Space.S03.E03.720p.WEB-DL.Hindi.5.1-English.ESub.x264 Lost.in.Space.S03.E04.720p.WEB-DL.Hindi.5.1-English.ESub.x264 Lost.in.Space.S03.E05.720p.WEB-DL.Hindi.5.1-English.ESub.x264 Lost.in.Space.S03.E06.720p.WEB-DL.Hindi.5.1-English.ESub.x264 Lost.in.Space.S03.E07.720p.WEB-DL.Hindi.5.1-English.ESub.x264 Lost.in.Space.S03.E08.720p.WEB-DL.Hindi.5.1-English.ESub.x264
  11. Burying the Ex (Hindi Dubbed) iMDB Rating: 5.4/10 Genres: Comedy, Horror Stars: Anton Yelchin, Ashley Greene, Alexandra Daddario Director: Joe Dante Language: Hindi DD 2.0 – English 2.0 Quality: 720p [BluRay] -: ScreenShot:- TamilBlasters.link - Burying the Ex (2014) 720p BluRay [Hindi DD2.0 & English] Dual Audio [900MB]
  1. Load more activity
×
×
  • Create New...